#TITLE:Kesenai Tsumi (Raw "Breath" Remix);
#SUBTITLE:- Fullmetal Alchemist 1st Ending;
#ARTIST:Nana Kitade;
#TITLETRANSLIT:;
#SUBTITLETRANSLIT:;
#ARTISTTRANSLIT:;
#CREDIT:Dj DMAxel;
#BANNER:Kesenai Tsumi (Raw Breath Remix).png;
#BACKGROUND:Kesenai Tsumi (Raw Breath Remix)-bg.png;
#LYRICSPATH:Kesenai Tsumi (Raw Breath Remix).lrc;
#CDTITLE:Dj DMA Original Simfile.png;
#MUSIC:Kesenai Tsumi (Raw Breath Remix).mp3;
#OFFSET:0.300;
#SAMPLESTART:44.496;
#SAMPLELENGTH:12.000;
#SELECTABLE:YES;
#BPMS:0.000=156.430;
#STOPS:;
#BGCHANGES:;
// cache tags:
#FIRSTBEAT:1.000;
#LASTBEAT:283.000;
#SONGFILENAME:songs/Otaku's Dream 3rd Anime Mix/[Dj DMAxel] Kesenai Tsumi (Raw Breath Remix) - FMA/Kesenai Tsumi (Raw Breath Remix).sm;
#HASMUSIC:1;
#HASBANNER:1;
#MUSICLENGTH:113.324;
// end cache tags

//---------------dance-single - ----------------
#NOTES:
     dance-single:
     :
     Easy:
     2:
     0.108,0.156,0.018,0.026,0.000,81.000,2.000,3.000,0.000,0.000:



0000
0000
0000
0000
,
0000
0000
0000
0000
,
0000
0000
0000
0010
,
0000
0000
0000
0001
,
0000
0000
0000
0010
,
0000
0000
0000
0100
,
0000
0000
0000
0001
,
0000
0000
0000
1000
,
0000
0000
0000
0010
,
0000
0000
0000
0100
,
0000
0000
0000
0001
,
0000
0000
0000
1000
,
0000
0000
0000
0100
,
0000
0000
0000
0100
,
0000
0000
0000
0010
,
0000
0000
0000
0010
,
0000
0000
0000
0001
,
0000
0000
0000
1000
,
0000
0000
0000
0010
,
0000
0000
0000
0001
,
0000
0000
0000
0010
,
0000
0000
0000
1000
,
0000
0000
0000
0100
,
0000
0000
0000
1000
,
0000
0000
0000
0010
,
0000
0000
0000
0001
,
0000
0000
0000
1000
,
0000
0000
0000
0010
,
0000
0000
0000
0100
,
0000
0001
2000
0000
,
0000
3000
0000
0101
,
0000
0010
0000
0100
,
0000
0010
0000
0001
,
0000
0100
0000
0010
,
0000
1000
0000
0100
,
0000
0001
0000
0010
,
0000
0100
0000
0001
,
0000
1000
0000
0010
,
0000
0110
0000
0001
,
0000
1000
0000
0010
,
0000
0100
0000
0001
,
0000
1000
0000
0001
,
0000
0000
0000
0010
,
0000
0000
0000
0100
,
0000
0000
0000
0001
,
0000
0000
0000
1000
,
0000
0000
0000
0010
,
0000
0000
0000
0100
,
0000
0000
0000
0001
,
0000
0000
0000
1000
,
0000
0000
0000
0010
,
0000
0000
0000
0100
,
0000
0000
0000
0001
,
0000
0000
2000
0000
,
3000
0000
0000
0001
,
0000
0000
0000
0010
,
0000
0000
0000
0100
,
0000
0000
0000
0010
,
0000
0000
0000
0100
,
0000
0000
0000
0001
,
0000
0000
0000
1000
,
0000
0000
0000
0010
,
0000
0000
0000
0100
,
0000
0000
0000
0010
,
0000
0000
0000
0001
,
0000
0000
0000
1000
,
0000
0000
0000
0010
,
0000
0000
0000
0100
,
0000
0000
0000
0001
,
0000
0000
0000
1000
,
0000
0020
0000
0030
;

//---------------dance-single - ----------------
#NOTES:
     dance-single:
     :
     Hard:
     7:
     0.440,0.403,0.185,0.018,0.000,326.000,21.000,2.000,0.000,0.000:



0000
0000
0000
0000
,
0000
0000
0000
0000
,
0000
0000
0000
1000
,
0010
0000
1000
0001
0100
0000
1000
0000
,
0010
0100
0010
1010
,
0100
0001
0100
0010
0100
0000
1010
0000
,
0100
0000
0010
0000
0001
0000
0010
0001
,
0001
0000
0001
0100
1000
0100
0001
0000
,
1000
1010
0100
0010
,
0001
0000
0010
0001
0010
1000
0100
0000
,
1000
0000
1010
0000
0100
0000
0001
0100
,
1000
0010
0000
1000
0010
0000
1010
0000
,
0100
0000
0001
0010
0001
0000
0011
0000
,
0001
0000
0001
1000
0010
0000
2000
0000
,
3100
0000
0000
0000
0010
0001
0010
0000
,
0001
0000
0010
0000
0100
0001
0100
0001
,
0100
0000
0100
0000
0010
0000
1000
0010
,
0100
0000
0010
0000
0001
0000
0001
0100
,
0010
0000
1000
0000
0001
0000
1000
0010
,
0100
0000
0010
0000
0001
0000
0010
0100
,
0010
0100
0010
0000
1000
0000
1010
0000
,
0100
0010
0101
0010
,
0001
0010
0001
0011
,
0001
0000
0001
0100
1000
0000
0100
0000
,
0010
0100
0010
0110
,
1000
0000
0010
1000
0010
0000
0100
0000
,
0010
0001
0010
0011
,
0001
0000
0100
0000
0001
0000
0001
0100
,
1000
0010
1000
0010
,
0100
0101
0010
0000
,
0000
1001
0010
0001
,
0100
0101
0000
0001
,
0100
1000
0010
0100
,
0010
0000
0001
0000
0100
0000
1000
0100
,
1000
0100
0010
0000
0000
1000
1000
0100
,
0010
0100
0010
0000
0010
0000
1000
0000
,
0010
0000
0100
0000
0010
0100
0100
0000
,
0001
0100
1000
0010
,
0001
1000
0001
0101
,
0010
0000
0001
0100
1000
0000
1100
0000
,
0010
0000
0100
0000
0010
0000
1000
0010
,
0010
0000
0001
0100
0010
0100
0010
0000
,
0100
0000
0001
0000
0100
0000
0010
0001
,
0100
0000
0100
0000
1000
0010
1000
0000
,
0100
0001
0010
1010
,
0100
0000
0100
0001
0010
0000
0001
0000
,
0010
0001
0010
1001
,
0001
0000
0001
0100
1000
0000
0100
0000
,
0011
0000
1000
0000
0010
0000
0100
0010
,
1000
0000
0010
0000
0101
0000
1000
0010
,
1000
0001
0100
0000
0100
0000
0010
0000
,
0010
0000
0001
0100
1000
0000
0001
0000
,
0010
1000
0010
0001
,
0100
0000
1000
0000
0100
0020
0000
0000
,
0000
0030
0100
0000
0010
0100
0010
1000
,
0010
0000
0100
0010
0100
0000
0010
0100
,
1000
0010
1000
0000
0100
0001
0010
0000
,
0001
0100
0001
1000
,
0010
0000
0100
0000
0001
0100
0010
0000
,
0001
0000
1000
0000
0010
0000
1000
0010
,
0100
0010
0100
0000
0001
0100
0010
0000
,
0001
0010
0100
0001
,
0010
0000
0001
0000
0001
0100
0001
0000
,
0010
0000
0100
0000
0010
0000
1000
0010
,
0100
0010
1000
0000
0100
0000
0010
0000
,
0001
0000
0100
0000
1000
0000
0100
0010
,
0100
1000
0100
0000
0001
0000
0101
0000
,
1000
0000
0010
1000
0010
0000
0100
0000
,
0010
0000
0001
0000
0010
0000
0010
0001
,
0001
0000
0001
0100
1000
0000
0100
0001
,
0100
1000
0010
0000
0000
0000
0000
0000
;

//---------------dance-single - ----------------
#NOTES:
     dance-single:
     :
     Challenge:
     8:
     0.562,0.651,0.441,0.132,0.062,381.000,50.000,15.000,0.000,0.000:

0000
0010
0000
0100
,
0000
0000
0000
0000
0010
0000
0000
0000
0000
0000
0000
0000
0001
1000
0001
1000
,
0001
1000
0001
1000
0001
0000
0000
0000
0100
0000
0000
0000
1010
0000
0000
0000
,
0100
0000
0010
1000
0100
0000
1010
0000
,
0100
0000
0010
0000
0001
0100
0001
0000
,
0001
0000
0010
1000
0010
0000
1000
0000
,
0010
0000
0100
0000
0001
0100
0001
0000
,
0100
0000
0000
0000
0010
0000
0001
0000
0010
0000
0000
0000
0010
0001
0010
0001
,
0010
0001
0010
0000
0100
0000
0000
0000
0100
0000
0000
0000
0001
0000
0100
0000
,
0001
0000
1100
1000
0100
0000
0011
0010
,
0001
0011
0001
1100
,
0001
0000
0001
0100
1000
0000
1001
0000
,
0010
1000
0010
0110
,
0010
0000
0001
0000
0100
0010
0100
0010
,
0100
0010
0011
0001
,
0100
0000
1000
0000
0100
0000
0001
0100
,
0001
0100
1000
1010
,
0100
0010
0001
0110
,
0100
0001
0010
0100
0010
0100
0001
0000
,
0010
2000
3200
0320
,
0032
0000
1003
0000
1000
0010
1010
0000
,
0100
0000
0010
0001
0010
0000
0101
0000
,
0001
0100
1000
0100
0001
0000
1000
0000
,
0100
0010
0001
0000
0001
0000
1000
0100
,
0010
0000
0010
0000
0100
0000
0010
0100
,
0010
0000
1000
0001
1000
0000
1000
0010
,
1010
0000
0100
0000
0010
0000
0001
0010
,
0001
0000
0001
0100
0001
0100
0001
0000
,
0100
0110
0001
0100
,
0000
0100
0000
0001
2000
0000
0000
0000
,
0000
0000
3001
0000
0010
0000
1001
0001
,
1000
0001
2000
0000
3010
0000
0110
0000
,
0001
0010
0100
0010
0001
0010
0200
0000
,
0301
0000
1000
0000
1010
0000
0010
0100
,
1000
0100
0010
0000
1000
0100
0001
0010
,
0100
1000
1000
0000
1000
0000
1010
0000
,
0100
0110
0100
0110
,
0001
0100
0000
1000
0000
0000
0002
0000
,
0103
0000
1000
0100
1000
0000
1010
0000
,
0000
0001
0100
1000
0010
0000
1010
0000
,
0100
0110
0010
0011
,
0100
0001
0100
0001
0010
0000
1010
0000
,
0100
0010
0001
0011
,
0100
0001
0100
0001
0010
0000
1100
0000
,
0001
0000
0100
0010
0000
0010
0000
0100
,
0001
0000
0001
0100
0010
0100
0010
0000
,
0200
0310
0002
0013
,
0100
0001
0100
1000
0010
0000
1010
0000
,
0200
0000
0302
0000
0023
0000
0031
0010
,
0100
0000
0001
0000
0100
0000
1000
0010
,
1000
0010
0002
0000
1003
0000
1010
0000
,
0100
0000
0100
0001
0010
0000
1010
0000
,
1000
0100
0001
0100
1000
0000
1100
0000
,
0001
0000
0010
0000
1000
0200
0300
0000
,
0000
0000
1001
0001
0100
0001
0100
0000
,
0010
0000
0001
0000
1000
0000
0000
0000
0110
0000
0000
0000
0010
0100
0010
0000
,
0001
0010
0001
0000
1000
0000
0100
0000
0010
0000
0110
0000
0000
0000
1001
0000
,
0000
0000
1001
0000
0000
0000
0101
0000
0000
0000
1001
0000
1000
0010
1000
0010
,
1000
0010
1000
0000
0010
0000
1000
0000
1010
0000
0000
0000
0100
0000
0000
0000
,
0110
0000
0000
0000
0001
0000
0100
0000
1000
0000
0100
0000
1000
0000
0100
0010
,
0100
0000
0100
0010
0100
0000
0000
0000
0010
0000
0100
0000
0110
0000
0000
0000
,
0001
0100
0101
0000
0100
0000
0101
0100
,
0001
0100
1000
0000
0100
0100
0110
0000
,
1000
0000
0001
0100
0001
0000
0010
0001
,
0100
1000
0010
0000
1000
0000
0010
0110
,
0000
0010
0000
0110
0000
0011
0000
1000
,
0100
1000
0010
0000
0100
0000
0110
0000
,
1000
0010
1000
0010
0100
0000
0001
0100
,
0001
0100
0010
0000
0001
0100
1000
0000
,
1000
0010
0001
0010
0001
0010
1000
0010
,
1000
0010
1001
0000
0000
0000
0000
0000
;

//---------------dance-single - ----------------
#NOTES:
     dance-single:
     :
     Medium:
     4:
     0.280,0.281,0.291,0.009,0.000,188.000,33.000,1.000,0.000,0.000:



0000
0000
0000
0000
,
0000
0000
0000
0000
,
0000
0000
0000
0010
,
0000
0000
0000
0001
,
0000
1000
0010
0100
,
0000
0010
0001
0100
,
0000
1000
0010
0100
,
0000
0010
0010
0001
,
0000
0001
0001
0100
,
0000
1000
1000
0010
,
0100
0001
0000
1000
,
0000
0010
0000
0100
,
0000
0010
0000
0011
,
0000
0100
0000
0101
,
0000
1000
0000
0110
,
0000
1000
0000
1001
,
0000
0010
0000
0011
,
0000
0100
0000
0001
,
0000
1000
0000
1010
,
0000
0100
0010
0001
,
0100
1000
0000
1010
,
0000
0010
0000
0011
,
0000
0100
0000
0101
,
0000
1000
0000
1010
,
0100
0010
0001
0011
,
0000
0001
0100
1100
,
0000
0001
0100
0001
,
0000
0010
0001
0011
,
0000
0001
0100
1000
,
0001
1000
1010
0000
,
0000
0101
0000
1000
,
0010
0100
0000
0010
,
0001
0010
0001
0100
,
1000
0010
0100
0010
,
1000
1001
0000
0100
,
0010
0011
0000
0001
,
0100
1000
0010
0100
,
0010
0001
0100
1000
,
0010
0100
0000
0110
,
0000
0010
0001
0100
,
0000
0001
0000
0101
,
0000
1000
0010
0100
,
0000
0100
0000
0110
,
0000
0001
0100
1000
,
0000
0010
0000
0100
,
0000
0001
0100
1000
,
0010
0100
0000
0011
,
0000
0001
0100
1100
,
0000
0100
0010
0011
,
0000
0001
0100
1100
,
0001
0100
0000
0110
,
0000
0010
0001
1000
,
0000
1000
0010
0100
,
1000
0001
0100
0000
,
0000
0101
0000
1000
,
0010
0100
0010
0001
,
0000
0001
0000
0101
,
0000
1000
0100
0010
,
0000
0001
0000
0011
,
0000
0101
0000
1000
,
0000
0010
0000
0110
,
0000
0010
0001
0100
,
0000
1000
0000
1010
,
0000
0100
0010
0001
,
0010
0011
0000
0101
,
0000
0001
0100
1000
,
0100
0001
0000
1000
,
0000
0010
0100
0010
,
0000
0001
0010
1000
,
0100
0001
0010
0100
,
1000
0002
0000
0003
;
